Auteur Sujet: Même pas peur! Enfin presque !  (Lu 2887 fois)

0 Membres et 1 Invité sur ce sujet

Hors ligne ABdu13

  • Troglodyte mignon
  • *
  • Messages: 102
Même pas peur! Enfin presque !
« le: 06 Mai 2012, 22:48:53 »
bonsoir à tous,

Toujours le même couple de chouette, après "rencontre du soir ...espoir", très bientôt "des jeunes à élever".

https://picasaweb.google.com/lh/photo/cy0eJGNH5BbWK9djQtqW2mFYLzYG159T3lrlOaonTdI?feat=email

Si les hommes ne les en empêchent pas ...le coup de feu ne leurs était pas destiné mais on perçoit le niveau de perturbation que cela génère. Il y a eu 2 autres accouplements après.Tjs le même matériel.

A suivre... :grin:

Merci encore à ceux qui ont commenté le 1er fil, le partage c'est encore mieux ainsi. :)
Bien Cordialement
Olivier
« Modifié: 06 Mai 2012, 22:51:39 par ABdu13 »

Hors ligne bolga2b

  • Ours des pyrénées
  • *
  • Messages: 12206
  • Sexe: Homme
Re : Même pas peur! Enfin presque !
« Réponse #1 le: 07 Mai 2012, 14:00:06 »
tres sympa, belle doc !!
Amicalement de Corse,   Jean François.

Hors ligne Olivier 88

  • Grive musicienne
  • *
  • Messages: 323
  • Sexe: Homme
Re : Même pas peur! Enfin presque !
« Réponse #2 le: 05 Juin 2012, 22:45:56 »
Très sympa comme reportage,
Merci
Olivier

Hors ligne ABdu13

  • Troglodyte mignon
  • *
  • Messages: 102
Re : Même pas peur! Enfin presque !
« Réponse #3 le: 06 Juin 2012, 09:00:38 »
la vidéo proposée est une conversion de full HD brut en mpeg1, il n'y a donc aucun traitement si ce n'est la conversion qui réduit nettement la qualité de la vidéo surtout en accentuation  car la netteté est bien présente.
mais tu as raison parfois l'AF refait la map  et des flous sont présents. les conditions de lumières sont déjà difficiles à la sortie des chouettes, même en Provence, je suis encore tout débutant ...

je travaille en vidéoscopie un S 100 canon couplé à une LV Kite SP ED 80 en Full HD natif. Le montage étant équivalent de 3000 mm de focale mini . L'AF du compact est activé avec suivi ce qui me semble plus facile, mais peut être faut il que je teste la MAP manuelle lorsque les sujets sont peu mobiles ou que je désactive le suivi AF
qu'en penses tu , comment procèdes tu , tu filmes avec un reflex ?
merci encore de tes commentaires.
cordialement
Olivier

Hors ligne = Vianney Goma =

  • Modérateur
  • Milan royal
  • *
  • Messages: 6300
    • Vianney Goma Photographies
Re : Même pas peur! Enfin presque !
« Réponse #4 le: 06 Juin 2012, 16:52:47 »
J'adore, elles sont trop mignonne! Je n'ai jamais eu l'occasion d'en observer!

C'est vrai que le dérangement du coup de fusil n'est pas négligeable...

Hors ligne ABdu13

  • Troglodyte mignon
  • *
  • Messages: 102
Re : Même pas peur! Enfin presque !
« Réponse #5 le: 06 Juin 2012, 22:48:46 »
Faune-sauvage,

voici les infos sur le format natif
Video: MPEG4 Video (H264) 1920x1080 23.97fps [Output 1]
Audio: PCM 48000Hz stereo 1536kbps [Output 2]

en détails

Video
ID                               : 1
Format                           : AVC
Format/Info                      : Advanced Video Codec
Format profile                   : Baseline@L5.0
Format settings, CABAC           : No
Format settings, ReFrames        : 1 frame
Codec ID                         : avc1
Codec ID/Info                    : Advanced Video Coding
Duration                         : 1mn 54s
Bit rate                         : 33.0 Mbps
Width                            : 1 920 pixels
Height                           : 1 080 pixels
Display aspect ratio             : 16:9
Frame rate mode                  : Constant
Frame rate                       : 23.976 fps
Color space                      : YUV
Chroma subsampling               : 4:2:0
Bit depth                        : 8 bits
Scan type                        : Progressive
Bits/(Pixel*Frame)               : 0.663
Stream size                      : 449 MiB (96%)
Language                         : English
Encoded date                     : UTC 2012-04-30 18:07:39
Tagged date                      : UTC 2012-04-30 18:07:39
Color primaries                  : BT.709-5, BT.1361, IEC 61966-2-4, SMPTE RP177
Transfer characteristics         : BT.709-5, BT.1361
Matrix coefficients              : BT.709-5, BT.1361, IEC 61966-2-4 709, SMPTE RP177

Audio
ID                               : 2
Format                           : PCM
Format settings, Endianness      : Little
Format settings, Sign            : Signed
Codec ID                         : sowt
Duration                         : 1mn 54s
Bit rate mode                    : Constant
Bit rate                         : 1 536 Kbps
Channel(s)                       : 2 channels
Sampling rate                    : 48.0 KHz
Bit depth                        : 16 bits
Stream size                      : 20.9 MiB (4%)
Language                         : English
Encoded date                     : UTC 2012-04-30 18:07:39
Tagged date                      : UTC 2012-04-30 18:07:39



et je convertis avec Mov to avi de Pazera  en format  Mpeg 1

quand pense tu ?
merci
Olivier

Hors ligne ABdu13

  • Troglodyte mignon
  • *
  • Messages: 102
Re : Même pas peur! Enfin presque !
« Réponse #6 le: 08 Juin 2012, 20:28:04 »
cette fois la conversion est en H264...selon les conseils de Faune-Sauvage. (merci)

https://picasaweb.google.com/olivierbriand13/VideoMovToAvi?authkey=Gv1sRgCMPDwoLJkccB#5751723722636687234

alors est ce mieux en qualité d'image ?

toutefois en bas à droite de l'image on peut choisir la définition de la vidéo  ce qui peut modifier fortement la qualité observée, dans cette nouvelle conversion ou dans la précédente. recherchez la définition max.

il y a aussi la profondeur de champs très réduite avec de telle focale équivalente (env 3000 mm) qui peut engendrer des zones floues.
au début de la vidéo la chouette de gauche (la femelle) devient flou l'AF ayant accroché le mâle à droite c'est aussi une explication aux images ou à certaines parties d'images floues.

A vos commentaires , merci.
cordialement
Olivier

Hors ligne Chris04

  • Mésange huppée
  • *
  • Messages: 279
Re : Même pas peur! Enfin presque !
« Réponse #7 le: 08 Juin 2012, 23:33:31 »
Bonjour,

J’avais regardé la première vidéo sans laisser de commentaire.

Les images n’étaient pas très nettes. Ce nouvel encodage donne un très bon résultat !

Effectivement la puissante focale utilisée ne laisse que très peu de profondeur de champ mais le sujet principal de l’action est net et on peut voir le travail de l’autofocus !

Bravo pour cette séquence !
Christian